Your IP Address is . Location is Your ISP and Government can track your torrent activity! Hide your IP with a VPN!

Black Panther 2018 720p TS x264 AAC

DOWNLOAD TORRENT DOWNLOAD PROTECT YOUR PRIVACY

Posted by moviefreak •1415 on March 11, 2018 in Movies » Action , verified torrent

Size: 1.15 GB , Seeds: 202 , Peers: 37 ( Updated April 14, 2018 - Refresh )

* Download via Magnet Link , * To download files you need a Bittorrent Client , * How to download torrents from Bit Torrent Scene?

Scrape History ( seeds + peers )

Internal Files

Black Panther 2018 720p TS x264 AAC
Black Panther 2018 720p TS x264 AAC.mkv   1.15 GB

Hash Code

5a57ed49948a2a97c5c7901c722631f4a42e48f4

Description


SCREENSHOT


General
Format : Matroska
Format version : Version 4 / Version 2
File size : 1.15 GiB
Duration : 2 h 3 min
Overall bit rate : 1 326 kb/s

Video
ID : 1
Format : AVC
Format/Info : Advanced Video Codec
Format profile : [email protected]
Format settings : CABAC / 4 Ref Frames
Format settings, CABAC : Yes
Format settings, RefFrames : 4 frames
Codec ID : V_MPEG4/ISO/AVC
Duration : 2 h 3 min
Bit rate : 1 200 kb/s
Width : 1 280 pixels
Height : 456 pixels
Display aspect ratio : 2.807
Frame rate mode : Constant
Frame rate : 23.976 (24000/1001) FPS
Color space : YUV
Chroma subsampling : 4:2:0
Bit depth : 8 bits
Scan type : Progressive
Bits/(Pixel*Frame) : 0.086
Stream size : 1.04 GiB (90%)
Writing library : x264 core 148 r2708 86b7198
Default : Yes
Forced : No

Audio
ID : 2
Format : AAC
Format/Info : Advanced Audio Codec
Format profile : LC
Codec ID : A_AAC-2
Duration : 2 h 3 min
Bit rate : 128 kb/s
Channel(s) : 2 channels
Channel positions : Front: L R
Sampling rate : 44.1 kHz
Frame rate : 43.066 FPS (1024 SPF)
Compression mode : Lossy
Stream size : 113 MiB (10%)
Language : English
Default : Yes
Forced : No




http://pichub.site/image/flXjk
http://pichub.site/image/fl9D9
http://pichub.site/image/fl3xv
http://pichub.site/image/flZTd
http://pichub.site/image/flHmu

Trackers

Refresh Leechers : Updated April 14, 2018

1. udp://tracker.pirateparty.gr:6969/announce

2. udp://tracker.opentrackr.org:1337/announce

3. http://tracker.opentrackr.org/announce

4. udp://tracker.vanitycore.co:6969/announce

5. udp://public.popcorn-tracker.org:6969/announce

6. udp://9.rarbg.to:2710/announce

7. udp://9.rarbg.me:2710/announce

8. udp://9.rarbg.com:2770/announce

9. udp://inferno.demonoid.pw:3391/announce

10. udp://tracker.internetwarriors.net:1337/announce

11. udp://ipv4.tracker.harry.lu:80/announce

12. udp://p4p.arenabg.ch:1337/announce

13. http://tracker.vanitycore.co:6969/announce

14. http://public.popcorn-tracker.org:6969/announce

15. udp://tracker.zer0day.to:1337/announce

Comments

You must log in to add a comment.

Embed Code

Sharing Widget

Related torrents

FILENAME SIZE SEEDS PEERS ADDED UPD
[i] Black Panther (2018) 720p HC HDTC 999MB - MkvCage 1002.3 MB 3515 1354 1 week 8 hours
[i] Black Panther (2018) 720p HDTS 999MB - MkvCage 1011.3 MB 2759 295 1 month 2 weeks
[i] Black Panther (2018) 720p HDTS 999MB - MkvCage 1 GB 672 103 3 weeks 1 week
[i] Black Panther 2018 720P New HDTS-X264-MP3-Zi$t 1.68 GB 129 37 1 month 6 days
[i] Black Panther 2018 720p HC HDTC AAC LLG
posted by LifeLongg in Movies - Action
877.28 MB 125 241 1 week 2 days
[i] Black Panther 2018 720p HD-TS Hindi Dubbed x264 AAC
posted by moviefreak in Movies - Misc
1.31 GB 69 24 2 months 1 day
[i] Black Panther 2018 ENG 720P New HDTS-X264-MP3-Zi$T 1.27 GB 39 12 1 month 3 weeks
[i] Black.Panther.2018.2017.720p.HDCAM.X264-SuperPixota 4.55 GB 36 11 2 months 4 days
[i] Black Panther 2018 720p HDTS x264 AAC
posted by moviefreak in Movies - Action
863.82 MB 36 8 1 month 2 weeks
[i] Black Panther 2018 720p HDTS MP3 128kbps Audio LLG
posted by LifeLongg in Movies - Action
921.26 MB 28 15 1 month 1 week

Top Movies ( auto generated report )

FILENAME SIZE SEEDS PEERS ADDED UPD
[i] Fifty Shades Freed (2018) [WEBRip] [720p] [YTS AM] 891.52 MB 3978 5590 22 hours 20 hours
[i] Pacific Rim 2 Uprising 2018 720p korsub hdrip x264 aac2 0-stuttershit 2.75 GB 3342 743 3 days 2 days
[i] What Happened to Monday (2017) [BluRay] [720p] [YTS AM] 1.04 GB 3233 1826 22 hours 20 hours
[i] Fifty Shades Freed (2018) [WEBRip] [1080p] [YTS AM] 1.68 GB 3115 3679 22 hours 20 hours
[i] What Happened to Monday (2017) [BluRay] [1080p] [YTS AM] 1.99 GB 2250 1066 22 hours 20 hours
[i] Genesis (2018) [WEBRip] [720p] [YTS AM] 965.85 MB 1369 860 3 days 2 days
[i] downloadhub in Sonu Ke Titu Ki Sweety (2018) Hindi 720p HDRip x264 AAC ESubs - Downloadhub 1.06 GB 1297 910 6 days 3 days
[i] Corbin Nash (2018) [WEBRip] [720p] [YTS AM] 824.69 MB 1240 725 3 days 2 days
[i] The Debt Collector (2018) [BluRay] [720p] [YTS AM] 818.36 MB 1225 444 3 days 1 day
[i] Genesis (2018) [WEBRip] [1080p] [YTS AM] 1.81 GB 1010 581 3 days 2 days